Вернуться   Компьютерный форум > Компьютеры > Программы > Графика
 
 
Опции темы
Старый 06.01.2016, 12:06   #1 (ссылка)
Новичок
 
Регистрация: 05.11.2010
Сообщений: 886
Репутация: 2
По умолчанию При загрузке видео на Ютьюб оно поворачивается на 90 градусов

привет всем. помогите пожалуйста.
При загрузке нормального видео на ютуб оно там поворачивается на 90 градусов. Как мне это исправить , подскажите как чайнику разными способами, заранее всем признателен!
мустафа вне форума  
Старый 06.01.2016, 16:07   #2 (ссылка)
Знаток
 
Регистрация: 17.01.2013
Сообщений: 2,405
Репутация: 184
По умолчанию

Цитата:
Сообщение от мустафа Посмотреть сообщение
При загрузке нормального видео
Какие параметры у вашего видео?
tamalex вне форума  
Старый 07.01.2016, 16:14   #3 (ссылка)
Новичок
 
Регистрация: 05.11.2010
Сообщений: 886
Репутация: 2
По умолчанию

Цитата:
Сообщение от tamalex Посмотреть сообщение
Какие параметры у вашего видео?
видео снятое на айфон 6s и снятое на нокия простую. вот.
мустафа вне форума  
Старый 07.01.2016, 21:04   #4 (ссылка)
Знаток
 
Регистрация: 17.01.2013
Сообщений: 2,405
Репутация: 184
По умолчанию

Цитата:
Сообщение от мустафа Посмотреть сообщение
видео снятое на айфон 6s и снятое на нокия простую. вот.
Ваш ответ равносилен ответу на вопрос "Какая у вас машина?" - Ответ "Красная на 4-х колесах".

Параметры можно посмотреть программой MediaInfo

И еще вопрос - видео снято на телефон случайно не вертикально?
tamalex вне форума  
Старый 10.01.2016, 12:46   #5 (ссылка)
Новичок
 
Регистрация: 05.11.2010
Сообщений: 886
Репутация: 2
По умолчанию

Цитата:
Сообщение от tamalex Посмотреть сообщение
Ваш ответ равносилен ответу на вопрос "Какая у вас машина?" - Ответ "Красная на 4-х колесах".

Параметры можно посмотреть программой MediaInfo

И еще вопрос - видео снято на телефон случайно не вертикально?
Данные видео снимались горизонтально.
Вот информация по видео согласно вашей программе (спасибо за программу!):

Общее
Полное имя : D:\ЗАГРУЗКИ С ИНЕТА\водопровод 59 мб.MOV
Формат : MPEG-4
Профиль формата : QuickTime
Идентификатор кодека : qt 0000.00 (qt )
Размер файла : 48,6 Мбайт
Продолжительность : 26 с.
Общий поток : 15,6 Мбит/сек
Дата записи : 2016-01-05T20:46:08+0300
Дата кодирования : UTC 2016-01-05 17:46:08
Дата пометки : UTC 2016-01-05 17:46:34
Программа кодирования : 8.0.2
Библиотека кодирования : Apple QuickTime
com.apple.quicktime.creationdate : 2016-01-05T20:46:08+0300
com.apple.quicktime.model : iPhone 5s
com.apple.quicktime.software : 8.0.2
com.apple.quicktime.location.ISO6709 : +42.9537+047.5512-015.891/
com.apple.quicktime.make : Apple
©xyz : +42.9537+047.5512-015.891/
Model : iPhone 5s
Make : Apple

Видео
Идентификатор : 1
Формат : AVC
Формат/Информация : Advanced Video Codec
Профиль формата : High@L4.1
Параметр CABAC формата : Да
Параметр ReFrames формата : 1 кадр
Параметр GOP формата : M=1, N=30
Идентификатор кодека : avc1
Идентификатор кодека/Информация : Advanced Video Coding
Продолжительность : 26 с.
Битрейт : 15,6 Мбит/сек
Ширина : 1920 пикселей
Высота : 1080 пикселей
Соотношение сторон : 16:9
Rotation : 90°
Режим частоты кадров : Переменный
Частота кадров : 29,970 (29970/1000) кадров/сек
Минимальная частота кадров : 28,571 кадров/сек
Максимальная частота кадров : 30,000 кадров/сек
Цветовое пространство : YUV
Субдискретизация насыщенности : 4:2:0
Битовая глубина : 8 бит
Тип развёртки : Прогрессивная
Бит/(Пиксели*Кадры) : 0.250
Размер потока : 48,4 Мбайт (100%)
мустафа вне форума  
Старый 10.01.2016, 12:49   #6 (ссылка)
Новичок
 
Регистрация: 05.11.2010
Сообщений: 886
Репутация: 2
По умолчанию

и вот информация второго видео которое снималось на NOKIA 6300 :

Общее
Полное имя : D:\ЗАГРУЗКИ С ИНЕТА\на сайт.mp4
Формат : MPEG-4
Профиль формата : Base Media
Идентификатор кодека : isom (isom/iso2/avc1)
Размер файла : 8,88 Мбайт
Продолжительность : 1 м. 48 с.
Общий поток : 689 Кбит/сек
Дата кодирования : UTC 2016-01-05 18:36:42
Дата пометки : UTC 2016-01-05 18:36:42

Видео
Идентификатор : 1
Формат : AVC
Формат/Информация : Advanced Video Codec
Профиль формата : High@L4.1
Параметр CABAC формата : Да
Параметр ReFrames формата : 1 кадр
Параметр GOP формата : M=1, N=30
Идентификатор кодека : avc1
Идентификатор кодека/Информация : Advanced Video Coding
Продолжительность : 1 м. 47 с.
Битрейт : 558 Кбит/сек
Ширина : 640 пикселей
Высота : 480 пикселей
Соотношение сторон : 4:3
Rotation : 90°
Режим частоты кадров : Постоянный
Частота кадров : 17,050 кадров/сек
Цветовое пространство : YUV
Субдискретизация насыщенности : 4:2:0
Битовая глубина : 8 бит
Тип развёртки : Прогрессивная
Бит/(Пиксели*Кадры) : 0.107
Размер потока : 7,17 Мбайт (81%)
Язык : English
Дата кодирования : UTC 2016-01-05 18:36:42
Дата пометки : UTC 2016-01-05 18:36:42

Аудио
Идентификатор : 2
Формат : AAC
Формат/Информация : Advanced Audio Codec
Профиль формата : LC
Идентификатор кодека : 40
Продолжительность : 1 м. 48 с.
Duration_FirstFrame : 171 мс.
Вид битрейта : Постоянный
Битрейт : 128 Кбит/сек
Номинальный битрейт : 12,2 Кбит/сек
Каналы : 2 канала
Расположение каналов : Front: L R
Частота : 48,0 КГц
Частота кадров : 46,875 кадров/сек (1024 spf)
Метод сжатия : С потерями
Размер потока : 1,65 Мбайт (19%)
Язык : English
Дата кодирования : UTC 2016-01-05 18:01:14
Дата пометки : UTC 2016-01-05 18:36:42
мустафа вне форума  
Ads
 


Здесь присутствуют: 1 (пользователей: 0 , гостей: 1)
 
Опции темы

Ваши права в разделе
Вы не можете создавать новые темы
Вы не можете отвечать в темах
Вы не можете прикреплять вложения
Вы не можете редактировать свои сообщения

BB коды Вкл.
Смайлы Вкл.
[IMG] код Вкл.
HTML код Выкл.


Похожие темы
Тема Автор Раздел Ответов Последнее сообщение
После установки новой видео карты, зависает при загрузке oleg128 Неисправности, настройка 2 12.07.2012 14:09
Комп перезагружается при загрузке видео из интернета Lux67 Программы 1 10.01.2012 01:57
SOS! При загрузке видео компьютер перегружается и пишет ошибку. Anna_1 Windows XP 7 03.09.2011 17:29
поменял видео карту а комп виснет при загрузке стефано Неисправности, настройка 7 16.08.2011 15:18
видео 70 градусов pofig13 Железо 5 01.03.2011 22:42


Текущее время: 10:57. Часовой пояс GMT +4. Powered by vBulletin® Version 5.8.9
Copyright ©2000 - 2016, Jelsoft Enterprises Ltd.